Hauptseite Datenschutzrichtlinie DMCA Kontakte
» » Stevie Woods - Attitude

Stevie Woods - Attitude Herunterladen

Stevie Woods - Attitude Herunterladen
Darsteller: Stevie Woods
Titel: Attitude
Land: US
Genre: Soulmusik
Stil:Rhythm & Blues
Freigegeben: 03 Aug 2010
Katalognummer: WOU 9123
Etikett: Wounded Bird Records
MP3-Albumgröße: 1699 mb
FLAC-Albumgröße: 2716 mb

Trackliste

1State Of Our Affair
Written-By – Diane Warren
3:31
2Heart (Stop Beating In Time)
Written-By – Robin Gibb, Barry Gibb & Maurice Gibb
4:42
3You Blow Me Away
Written-By – Bill Bowersock
4:16
4Ain't That Peculiar
Written-By – Marv Tarplin, Robert Rogers, William "Smokey" Robinson, Warren Moore
3:32
5Make Up, Break Up
Written-By – Dennis Matkosky, Frank Musker, Michael Sembello
3:35
6Outside Myself
Written-By – Barbara Rothstein, George Michael Elian, Richard Ash
4:01
7Outrageous
Written-By – Jack Goga, Matt Vernon
4:09
8A Love So Right
Written-By – Gloria Sklerov, Harry Lloyd
4:22
9Loving You
Written-By – Bobby Caldwell, Henry Marx
3:47

Versionen

CategoryArtistTitle (Format)LabelCategoryCountryYear
90123-1Stevie Woods Attitude ‎(LP, Album)Cotillion90123-1US1983
VSCD-3523Stevie Woods Attitude ‎(CD, Album, Ltd, RE, RM, Min)Vivid SoundVSCD-3523Japan2010
406 002, 406 002-352Stevie Woods Attitude ‎(Cass, Album)Ariola, Ariola406 002, 406 002-352Europe1984
P-11451Stevie Woods Attitude ‎(LP, Album, Promo)Cotillion RecordsP-11451Japan1983
P-11451Stevie Woods Attitude ‎(LP, Album)Cotillion RecordsP-11451Japan1983

Credits

  • Arranged ByRobbie Buchanan
  • Backing VocalsCarmen Twille, Richard Page, Steven George, Thomas Kelly
  • BassNathan East
  • ContractorFrank Capp
  • DrumsCarlos Vega
  • EngineerJuergen Koppers
  • Engineer [Additional Engineering]Jeff Silver, Jeremy Smith , John Kovarek
  • Executive-ProducerJack White
  • GuitarDanny Huff, David Williams , Paul Jackson Jr., Stevie Woods
  • KeyboardsRobbie Buchanan
  • Mastered ByBrian Gardner
  • PercussionPaulinho DaCosta
  • ProducerJack White, Robbie Buchanan
  • SaxophoneKim Hutchcroft, Larry Williams
  • TromboneBill Reichenbach
  • TrumpetJerry Hey, Larry Hall

Barcodes

  • Barcode: 664140912328

Kurzes Intro

Listen free to Stevie Woods Attitude Heart Stop Beating In Time, Outrageous and more. 9 tracks 35:44. Visitor rating. Release date label labelcode medium genre submit corrections. Lp album. Cotillion records. Lp album promo. Joseph Stephen Stevie Woods, Jr. July 2, 1951 January 28, 2014 was an American R&B musician and singer. Woods was born in Chatham, Virginia, to jazz great Rusty Bryant. In the late 1970s, he was a member of the funk band Crowd Pleasers. In the early 1980s, his two singles, Steal the Night and Just Can't Win 'Em All, reached top 40 on the Billboard Hot 100. After his brief U. fame fizzled, Woods relocated to Germany, where he successfully re-launched his career, releasing the single Rock. Stevie Woods. Attitude CD, Album, Ltd, RE, RM, Min. Vivid Sound. VSCD-3523. 이 버전 판매. Attitude Cass, Album. Attitude LP, Album. Cotillion Records. Beauti - Stevie Woods. Лента с персональными рекомендациями и музыкальными новинками, радио, подборки на любой вкус, удобное управление своей коллекцией. Artist: Stevie Woods Album: Attitude Year: 1984 Genre: PopWestcoast -uploaded in HD at http. Artist: Stevie Woods Album: Attitude Year: 1984 Genre: PopWestcoast. uploaded in HD at Song Lyrics for Stevie Woods's Attitude album. Loving You Lyrics. Stevie Woods Lyrics provided by . Do you like this album Leave a review. In the Know. Lyricapsule: The Surfaris Drop Wipe Out June 22, 1963. RIFFd: Nas Nasir. Lyricapsule: The Byrds Drop Mr. Tambourine Man June 21, 1965. Disc IDs 0. Cover Art 0. Stevie Woods tracks 19. lyricist: Bill Bowersock track 3. Diane Warren US songwriter track 8. producer: Robbie Buchanan tracks 19. Jack White German producer Horst Nußbaum tracks 19. Additional details. Type: Album. Packaging: Jewel Case. Status: Official. Language: English. Stevie Woods Format: Audio CD. New from. Used from. Audio CD, August 3, 2010. First time on CD for this 1983 album from the R&B vocalist, originally released on the Cotillion label. Attitude features Carlos Vega. Wounded Bird. Track Listings. Disc: 1. Heart Stop Beating in Time 4:42. Outrageous 4:09
Freunden erzählen!

Bezogen auf die Stevie Woods - Attitude
Bewertungen: (1)
Anyshoun
Anyshoun
foobar2000 1.3.17 / Dynamic Range Meter 1.1.1
log date: 2018-03-16 21:29:07

--------------------------------------------------------------------------------
Analyzed: Stevie Woods / Attitude
--------------------------------------------------------------------------------

DR Peak RMS Duration Track
--------------------------------------------------------------------------------
DR9 -0.50 dB -11.24 dB 4:45 01-Heart (Stop Beating In Time)
DR9 -0.50 dB -11.21 dB 4:11 02-Outrageous
DR9 -0.50 dB -11.15 dB 4:18 03-You Blow Me Away
DR8 -0.50 dB -10.81 dB 4:24 04-A Love So Right
DR8 -0.50 dB -10.75 dB 3:37 05-Make Up、Break Up
DR9 -0.50 dB -10.57 dB 3:35 06-Ain't That Peculiar
DR8 -0.50 dB -11.67 dB 4:04 07-Outside Myself
DR9 -0.50 dB -11.50 dB 3:34 08-State Of Our Affair
DR10 -0.50 dB -12.92 dB 3:47 09-Loving You
--------------------------------------------------------------------------------

Number of tracks: 9
Official DR value: DR9

Samplerate: 44100 Hz
Channels: 2
Bits per sample: 16
Bitrate: 896 kbps
Codec: ALAC
================================================================================